There are currently 2614 movies on our website.

Watch Stratton (2017) Online Free

0
( High Definition )

Watch Stratton (2017) Online Free

Action / Thriller


[title]Stratton 2017 720p.BluRay.H264.AAC-6CH-VVEXO[/title]


[color=blue][size=5]Stratton (2017)[/size][/color]

1h 34min | Action, Thriller | 1 September 2017 (UK)
A British Special Boat Service commando tracks down an international terrorist cell.
Director: Simon West
Writers: Duncan Falconer (based on the novel by), Warren Davis II (screenplay)

http://www.imdb.com/title/tt3567666/

Connie Nielsen…Sumner
Tom Felton…Cummings
Tyler Hoechlin…Marty
Dominic Cooper…John Stratton
Gemma Chan…Aggy
Thomas Kretschmann…Grigory Barovsky
Austin Stowell…Hank
Derek Jacobi…Ross









[pre]General
Complete name : Stratton 2017 720p.BluRay.H264.AAC-6CH-VVEXO.mp4
Format : MPEG-4
Format profile : Base Media
Codec ID : isom (isom/iso2/avc1/mp41)
File size : 1.14 GiB
Duration : 1 h 34 min
Overall bit rate : 1 731 kb/s
Encoded date : UTC 2017-04-27 06:49:03
Tagged date : UTC 2017-04-27 06:49:03
Writing application : Lavf56.40.101
Video
ID : 1
Format : AVC
Format/Info : Advanced Video Codec
Format profile : [email protected]
Format settings, CABAC : Yes
Format settings, ReFrames : 4 frames
Codec ID : avc1
Codec ID/Info : Advanced Video Coding
Duration : 1 h 34 min
Bit rate : 1 500 kb/s
Width : 1 280 pixels
Height : 540 pixels
Display aspect ratio : 2.40:1
Frame rate mode : Constant
Frame rate : 23.976 (23976/1000) FPS
Color space : YUV
Chroma subsampling : 4:2:0
Bit depth : 8 bits
Scan type : Progressive
Bits/(Pixel*Frame) : 0.091
Stream size : 1 014 MiB (87%)
Writing library : x264 core 148 r2597M e86f3a1
Encoding settings : cabac=1 / ref=4 / deblock=1:-1:-1 / analyse=0x3:0x113 / me=umh / subme=9 / psy=1 / psy_rd=1.00:0.15 / mixed_ref=1 / me_range=24 / chroma_me=1 / trellis=2 / 8x8dct=1 / cqm=0 / deadzone=21,11 / fast_pskip=1 / chroma_qp_offset=-3 / threads=32 / lookahead_threads=4 / sliced_threads=0 / nr=0 / decimate=1 / interlaced=0 / bluray_compat=0 / constrained_intra=0 / bframes=3 / b_pyramid=2 / b_adapt=2 / b_bias=0 / direct=3 / weightb=1 / open_gop=0 / weightp=2 / keyint=250 / keyint_min=25 / scenecut=40 / intra_refresh=0 / rc_lookahead=50 / rc=2pass / mbtree=1 / bitrate=1500 / ratetol=1.0 / qcomp=0.60 / qpmin=0 / qpmax=69 / qpstep=4 / cplxblur=20.0 / qblur=0.5 / vbv_maxrate=31250 / vbv_bufsize=31250 / nal_hrd=none / filler=0 / ip_ratio=1.40 / aq=3:1.00
Encoded date : UTC 2017-04-27 06:49:03
Tagged date : UTC 2017-04-27 06:49:03
Audio
ID : 2
Format : AAC
Format/Info : Advanced Audio Codec
Format profile : LC
Codec ID : 40
Duration : 1 h 34 min
Bit rate mode : Constant
Bit rate : 224 kb/s
Channel(s) : 2 channels
Channel(s)_Original : 6 channels
Channel positions : Front: L C R, Side: L R, LFE
Sampling rate : 48.0 kHz
Frame rate : 46.875 FPS (1024 spf)
Compression mode : Lossy
Stream size : 151 MiB (13%)
Language : English
Default : Yes
Alternate group : 1
Encoded date : UTC 2017-04-27 06:49:03
Tagged date : UTC 2017-04-27 06:49:03
[/pre]

Watch Stratton (2017) online Free

http://www.imdb.com/title/tt3567666/
4.9

Connie Nielsen / Tom Felton / Dominic Cooper / Tyler Hoechlin / Gemma Chan / Austin Stowell / Thomas Kretschmann / Derek Jacobi / Igal Naor / Olegar Fedoro / Lee Nicholas Harris / Jake Fairbrother / Rinat Khismatouline / Mohammed Ali / Nico Toffoli
A British Special Boat Service commando tracks down an international terrorist cell.
94
The enemy has a weapon. So do we.

34 views
Comments WOULD YOU LIKE TO COMMENT ?